Thursday, December 5, 2019

Billie Eilish: Ocean Eyes

Billie Eilish
Finneas O'Connell

Wednesday, November 27, 2019

macOS Catalina: Downloading .m3u8 File Using FFmpeg

Command:

$ brew install ffmpeg

$ ffmpeg -i "http://hlsvod.shugiintv.go.jp/vod/_definst_/amlst:2016/2016-0229-1210-00/playlist.m3u8" -c copy -bsf:a aac_adtstoasc "output.mp4"


Result:

ffmpeg version 4.2.1 Copyright (c) 2000-2019 the FFmpeg developers
  built with Apple clang version 11.0.0 (clang-1100.0.33.8)
  configuration: --prefix=/usr/local/Cellar/ffmpeg/4.2.1_2 --enable-shared --enable-pthreads --enable-version3 --enable-avresample --cc=clang --host-cflags='-I/Library/Java/JavaVirtualMachines/adoptopenjdk-13.jdk/Contents/Home/include -I/Library/Java/JavaVirtualMachines/adoptopenjdk-13.jdk/Contents/Home/include/darwin -fno-stack-check' --host-ldflags= --enable-ffplay --enable-gnutls --enable-gpl --enable-libaom --enable-libbluray --enable-libmp3lame --enable-libopus --enable-librubberband --enable-libsnappy --enable-libtesseract --enable-libtheora --enable-libvidstab --enable-libvorbis --enable-libvpx --enable-libx264 --enable-libx265 --enable-libxvid --enable-lzma --enable-libfontconfig --enable-libfreetype --enable-frei0r --enable-libass --enable-libopencore-amrnb --enable-libopencore-amrwb --enable-libopenjpeg --enable-librtmp --enable-libspeex --enable-libsoxr --enable-videotoolbox --disable-libjack --disable-indev=jack
  libavutil      56. 31.100 / 56. 31.100
  libavcodec     58. 54.100 / 58. 54.100
  libavformat    58. 29.100 / 58. 29.100
  libavdevice    58.  8.100 / 58.  8.100
  libavfilter     7. 57.100 /  7. 57.100
  libavresample   4.  0.  0 /  4.  0.  0
  libswscale      5.  5.100 /  5.  5.100
  libswresample   3.  5.100 /  3.  5.100
  libpostproc    55.  5.100 / 55.  5.100
[hls @ 0x7fb294000000] Skip ('#EXT-X-VERSION:3')
[hls @ 0x7fb294000000] Opening 'http://hlsvod.shugiintv.go.jp/vod/_definst_/amlst:2016/2016-0229-1210-00/chunklist_w2080225898_b564000_t64NTAwaw==.m3u8' for reading
[hls @ 0x7fb294000000] Skip ('#EXT-X-VERSION:3')
[hls @ 0x7fb294000000] Opening 'http://hlsvod.shugiintv.go.jp/vod/_definst_/amlst:2016/2016-0229-1210-00/media_w2080225898_b564000_t64NTAwaw==_0.ts' for reading
[hls @ 0x7fb294000000] Opening 'http://hlsvod.shugiintv.go.jp/vod/_definst_/amlst:2016/2016-0229-1210-00/media_w2080225898_b564000_t64NTAwaw==_1.ts' for reading
Input #0, hls, from 'http://hlsvod.shugiintv.go.jp/vod/_definst_/amlst:2016/2016-0229-1210-00/playlist.m3u8':
  Duration: 00:57:31.31, start: 0.000000, bitrate: N/A
  Program 0
    Metadata:
      variant_bitrate : 564000
    Stream #0:0: Data: timed_id3 (ID3  / 0x20334449)
    Metadata:
      variant_bitrate : 564000
    Stream #0:1: Video: h264 (High) ([27][0][0][0] / 0x001B), yuv420p, 640x360, 30 fps, 30 tbr, 90k tbn, 60 tbc
    Metadata:
      variant_bitrate : 564000
    Stream #0:2: Audio: aac (LC) ([15][0][0][0] / 0x000F), 44100 Hz, mono, fltp
    Metadata:
      variant_bitrate : 564000
Output #0, mp4, to 'kokkai.mp4':
  Metadata:
    encoder         : Lavf58.29.100
    Stream #0:0: Video: h264 (High) (avc1 / 0x31637661), yuv420p, 640x360, q=2-31, 30 fps, 30 tbr, 90k tbn, 90k tbc
    Metadata:
      variant_bitrate : 564000
    Stream #0:1: Audio: aac (LC) (mp4a / 0x6134706D), 44100 Hz, mono, fltp
    Metadata:
      variant_bitrate : 564000
Stream mapping:
  Stream #0:1 -> #0:0 (copy)
  Stream #0:2 -> #0:1 (copy)
Press [q] to stop, [?] for help
[mp4 @ 0x7fb29401d200] Non-monotonous DTS in output stream 0:1; previous: 11264, current: 10226; changing to 11265. This may result in incorrect timestamps in the output file.
[mp4 @ 0x7fb29401d200] Non-monotonous DTS in output stream 0:1; previous: 11265, current: 11250; changing to 11266. This may result in incorrect timestamps in the output file.
[http @ 0x7fb294019200] Opening 'http://hlsvod.shugiintv.go.jp/vod/_definst_/amlst:2016/2016-0229-1210-00/media_w2080225898_b564000_t64NTAwaw==_2.ts' for reading
[http @ 0x7fb29580a800] Opening 'http://hlsvod.shugiintv.go.jp/vod/_definst_/amlst:2016/2016-0229-1210-00/media_w2080225898_b564000_t64NTAwaw==_3.ts' for reading
frame=  837 fps=0.0 q=-1.0 size=    1536kB time=00:00:27.86 bitrate= 451.6kbits/[http @ 0x7fb294019200] Opening 'http://hlsvod.shugiintv.go.jp/vod/_definst_/amlst:2016/2016-0229-1210-00/media_w2080225898_b564000_t64NTAwaw==_4.ts' for reading
[http @ 0x7fb29580a800] Opening 'http://hlsvod.shugiintv.go.jp/vod/_definst_/amlst:2016/2016-0229-1210-00/media_w2080225898_b564000_t64NTAwaw==_5.ts' for reading
[http @ 0x7fb294019200] Opening 'http://hlsvod.shugiintv.go.jp/vod/_definst_/amlst:2016/2016-0229-1210-00/media_w2080225898_b564000_t64NTAwaw==_6.ts' for reading
frame= 1610 fps=1591 q=-1.0 size=    3072kB time=00:00:53.66 bitrate= 469.0kbits[http @ 0x7fb29580a800] Opening 'http://hlsvod.shugiintv.go.jp/vod/_definst_/amlst:2016/2016-0229-1210-00/media_w2080225898_b564000_t64NTAwaw==_7.ts' for reading
[http @ 0x7fb294019200] Opening 'http://hlsvod.shugiintv.go.jp/vod/_definst_/amlst:2016/2016-0229-1210-00/media_w2080225898_b564000_t64NTAwaw==_8.ts' for reading
[http @ 0x7fb29580a800] Opening 'http://hlsvod.shugiintv.go.jp/vod/_definst_/amlst:2016/2016-0229-1210-00/media_w2080225898_b564000_t64NTAwaw==_9.ts' for reading
frame= 2523 fps=1662 q=-1.0 size=    5120kB time=00:01:24.07 bitrate= 498.9kbits[http @ 0x7fb294019200] Opening 'http://hlsvod.shugiintv.go.jp/vod/_definst_/amlst:2016/2016-0229-1210-00/media_w2080225898_b564000_t64NTAwaw==_10.ts' for reading
[http @ 0x7fb29580a800] Opening 'http://hlsvod.shugiintv.go.jp/vod/_definst_/amlst:2016/2016-0229-1210-00/media_w2080225898_b564000_t64NTAwaw==_11.ts' for reading
[http @ 0x7fb294019200] Opening 'http://hlsvod.shugiintv.go.jp/vod/_definst_/amlst:2016/2016-0229-1210-00/media_w2080225898_b564000_t64NTAwaw==_12.ts' for reading
[http @ 0x7fb29580a800] Opening 'http://hlsvod.shugiintv.go.jp/vod/_definst_/amlst:2016/2016-0229-1210-00/media_w2080225898_b564000_t64NTAwaw==_13.ts' for reading
frame= 3781 fps=1868 q=-1.0 size=    7680kB time=00:02:06.00 bitrate= 499.3kbits[http @ 0x7fb294019200] Opening 'http://hlsvod.shugiintv.go.jp/vod/_definst_/amlst:2016/2016-0229-1210-00/media_w2080225898_b564000_t64NTAwaw==_14.ts' for reading
[http @ 0x7fb29580a800] Opening 'http://hlsvod.shugiintv.go.jp/vod/_definst_/amlst:2016/2016-0229-1210-00/media_w2080225898_b564000_t64NTAwaw==_15.ts' for reading
[http @ 0x7fb294019200] Opening 'http://hlsvod.shugiintv.go.jp/vod/_definst_/amlst:2016/2016-0229-1210-00/media_w2080225898_b564000_t64NTAwaw==_16.ts' for reading
[http @ 0x7fb29580a800] Opening 'http://hlsvod.shugiintv.go.jp/vod/_definst_/amlst:2016/2016-0229-1210-00/media_w2080225898_b564000_t64NTAwaw==_17.ts' for reading
frame= 5010 fps=1855 q=-1.0 size=   10496kB time=00:02:46.97 bitrate= 515.0kbits[http @ 0x7fb294019200] Opening 'http://hlsvod.shugiintv.go.jp/vod/_definst_/amlst:2016/2016-0229-1210-00/media_w2080225898_b564000_t64NTAwaw==_18.ts' for reading
[http @ 0x7fb29580a800] Opening 'http://hlsvod.shugiintv.go.jp/vod/_definst_/amlst:2016/2016-0229-1210-00/media_w2080225898_b564000_t64NTAwaw==_19.ts' for reading
[http @ 0x7fb294019200] Opening 'http://hlsvod.shugiintv.go.jp/vod/_definst_/amlst:2016/2016-0229-1210-00/media_w2080225898_b564000_t64NTAwaw==_20.ts' for reading
[http @ 0x7fb29580a800] Opening 'http://hlsvod.shugiintv.go.jp/vod/_definst_/amlst:2016/2016-0229-1210-00/media_w2080225898_b564000_t64NTAwaw==_21.ts' for reading
[http @ 0x7fb294019200] Opening 'http://hlsvod.shugiintv.go.jp/vod/_definst_/amlst:2016/2016-0229-1210-00/media_w2080225898_b564000_t64NTAwaw==_22.ts' for reading
frame= 6481 fps=2024 q=-1.0 size=   13568kB time=00:03:36.00 bitrate= 514.6kbits[http @ 0x7fb29580a800] Opening 'http://hlsvod.shugiintv.go.jp/vod/_definst_/amlst:2016/2016-0229-1210-00/media_w2080225898_b564000_t64NTAwaw==_23.ts' for reading
[http @ 0x7fb294019200] Opening 'http://hlsvod.shugiintv.go.jp/vod/_definst_/amlst:2016/2016-0229-1210-00/media_w2080225898_b564000_t64NTAwaw==_24.ts' for reading
[http @ 0x7fb29580a800] Opening 'http://hlsvod.shugiintv.go.jp/vod/_definst_/amlst:2016/2016-0229-1210-00/media_w2080225898_b564000_t64NTAwaw==_25.ts' for reading
[http @ 0x7fb294019200] Opening 'http://hlsvod.shugiintv.go.jp/vod/_definst_/amlst:2016/2016-0229-1210-00/media_w2080225898_b564000_t64NTAwaw==_26.ts' for reading
[http @ 0x7fb29580a800] Opening 'http://hlsvod.shugiintv.go.jp/vod/_definst_/amlst:2016/2016-0229-1210-00/media_w2080225898_b564000_t64NTAwaw==_27.ts' for reading
frame= 8010 fps=2160 q=-1.0 size=   16640kB time=00:04:26.98 bitrate= 510.6kbits[http @ 0x7fb294019200] Opening 'http://hlsvod.shugiintv.go.jp/vod/_definst_/amlst:2016/2016-0229-1210-00/media_w2080225898_b564000_t64NTAwaw==_28.ts' for reading
[http @ 0x7fb29580a800] Opening 'http://hlsvod.shugiintv.go.jp/vod/_definst_/amlst:2016/2016-0229-1210-00/media_w2080225898_b564000_t64NTAwaw==_29.ts' for reading
[http @ 0x7fb294019200] Opening 'http://hlsvod.shugiintv.go.jp/vod/_definst_/amlst:2016/2016-0229-1210-00/media_w2080225898_b564000_t64NTAwaw==_30.ts' for reading
[http @ 0x7fb29580a800] Opening 'http://hlsvod.shugiintv.go.jp/vod/_definst_/amlst:2016/2016-0229-1210-00/media_w2080225898_b564000_t64NTAwaw==_31.ts' for reading
[http @ 0x7fb294019200] Opening 'http://hlsvod.shugiintv.go.jp/vod/_definst_/amlst:2016/2016-0229-1210-00/media_w2080225898_b564000_t64NTAwaw==_32.ts' for reading
frame= 9564 fps=2271 q=-1.0 size=   19968kB time=00:05:18.80 bitrate= 513.1kbits[http @ 0x7fb29580a800] Opening 'http://hlsvod.shugiintv.go.jp/vod/_definst_/amlst:2016/2016-0229-1210-00/media_w2080225898_b564000_t64NTAwaw==_33.ts' for reading
[http @ 0x7fb294019200] Opening 'http://hlsvod.shugiintv.go.jp/vod/_definst_/amlst:2016/2016-0229-1210-00/media_w2080225898_b564000_t64NTAwaw==_34.ts' for reading
[http @ 0x7fb29580a800] Opening 'http://hlsvod.shugiintv.go.jp/vod/_definst_/amlst:2016/2016-0229-1210-00/media_w2080225898_b564000_t64NTAwaw==_35.ts' for reading
[http @ 0x7fb294019200] Opening 'http://hlsvod.shugiintv.go.jp/vod/_definst_/amlst:2016/2016-0229-1210-00/media_w2080225898_b564000_t64NTAwaw==_36.ts' for reading
[http @ 0x7fb29580a800] Opening 'http://hlsvod.shugiintv.go.jp/vod/_definst_/amlst:2016/2016-0229-1210-00/media_w2080225898_b564000_t64NTAwaw==_37.ts' for reading
frame=11041 fps=2338 q=-1.0 size=   23040kB time=00:06:08.00 bitrate= 512.9kbits[http @ 0x7fb294019200] Opening 'http://hlsvod.shugiintv.go.jp/vod/_definst_/amlst:2016/2016-0229-1210-00/media_w2080225898_b564000_t64NTAwaw==_38.ts' for reading
[http @ 0x7fb29580a800] Opening 'http://hlsvod.shugiintv.go.jp/vod/_definst_/amlst:2016/2016-0229-1210-00/media_w2080225898_b564000_t64NTAwaw==_39.ts' for reading
[http @ 0x7fb294019200] Opening 'http://hlsvod.shugiintv.go.jp/vod/_definst_/amlst:2016/2016-0229-1210-00/media_w2080225898_b564000_t64NTAwaw==_40.ts' for reading
[http @ 0x7fb29580a800] Opening 'http://hlsvod.shugiintv.go.jp/vod/_definst_/amlst:2016/2016-0229-1210-00/media_w2080225898_b564000_t64NTAwaw==_41.ts' for reading
[http @ 0x7fb294019200] Opening 'http://hlsvod.shugiintv.go.jp/vod/_definst_/amlst:2016/2016-0229-1210-00/media_w2080225898_b564000_t64NTAwaw==_42.ts' for reading
frame=12510 fps=2396 q=-1.0 size=   26112kB time=00:06:57.02 bitrate= 512.9kbits[http @ 0x7fb29580a800] Opening 'http://hlsvod.shugiintv.go.jp/vod/_definst_/amlst:2016/2016-0229-1210-00/media_w2080225898_b564000_t64NTAwaw==_43.ts' for reading
[http @ 0x7fb294019200] Opening 'http://hlsvod.shugiintv.go.jp/vod/_definst_/amlst:2016/2016-0229-1210-00/media_w2080225898_b564000_t64NTAwaw==_44.ts' for reading
[http @ 0x7fb29580a800] Opening 'http://hlsvod.shugiintv.go.jp/vod/_definst_/amlst:2016/2016-0229-1210-00/media_w2080225898_b564000_t64NTAwaw==_45.ts' for reading
[http @ 0x7fb294019200] Opening 'http://hlsvod.shugiintv.go.jp/vod/_definst_/amlst:2016/2016-0229-1210-00/media_w2080225898_b564000_t64NTAwaw==_46.ts' for reading
frame=13722 fps=2397 q=-1.0 size=   29184kB time=00:07:37.38 bitrate= 522.7kbits[http @ 0x7fb29580a800] Opening 'http://hlsvod.shugiintv.go.jp/vod/_definst_/amlst:2016/2016-0229-1210-00/media_w2080225898_b564000_t64NTAwaw==_47.ts' for reading
[http @ 0x7fb294019200] Opening 'http://hlsvod.shugiintv.go.jp/vod/_definst_/amlst:2016/2016-0229-1210-00/media_w2080225898_b564000_t64NTAwaw==_48.ts' for reading
[http @ 0x7fb29580a800] Opening 'http://hlsvod.shugiintv.go.jp/vod/_definst_/amlst:2016/2016-0229-1210-00/media_w2080225898_b564000_t64NTAwaw==_49.ts' for reading
frame=14551 fps=2336 q=-1.0 size=   32512kB time=00:08:05.01 bitrate= 549.1kbits[http @ 0x7fb294019200] Opening 'http://hlsvod.shugiintv.go.jp/vod/_definst_/amlst:2016/2016-0229-1210-00/media_w2080225898_b564000_t64NTAwaw==_50.ts' for reading
[http @ 0x7fb29580a800] Opening 'http://hlsvod.shugiintv.go.jp/vod/_definst_/amlst:2016/2016-0229-1210-00/media_w2080225898_b564000_t64NTAwaw==_51.ts' for reading
[http @ 0x7fb294019200] Opening 'http://hlsvod.shugiintv.go.jp/vod/_definst_/amlst:2016/2016-0229-1210-00/media_w2080225898_b564000_t64NTAwaw==_52.ts' for reading
frame=15581 fps=2315 q=-1.0 size=   35840kB time=00:08:39.36 bitrate= 565.3kbits[http @ 0x7fb29580a800] Opening 'http://hlsvod.shugiintv.go.jp/vod/_definst_/amlst:2016/2016-0229-1210-00/media_w2080225898_b564000_t64NTAwaw==_53.ts' for reading
[http @ 0x7fb294019200] Opening 'http://hlsvod.shugiintv.go.jp/vod/_definst_/amlst:2016/2016-0229-1210-00/media_w2080225898_b564000_t64NTAwaw==_54.ts' for reading
[http @ 0x7fb29580a800] Opening 'http://hlsvod.shugiintv.go.jp/vod/_definst_/amlst:2016/2016-0229-1210-00/media_w2080225898_b564000_t64NTAwaw==_55.ts' for reading
[http @ 0x7fb294019200] Opening 'http://hlsvod.shugiintv.go.jp/vod/_definst_/amlst:2016/2016-0229-1210-00/media_w2080225898_b564000_t64NTAwaw==_56.ts' for reading
frame=16708 fps=2300 q=-1.0 size=   39168kB time=00:09:16.90 bitrate= 576.2kbits[http @ 0x7fb29580a800] Opening 'http://hlsvod.shugiintv.go.jp/vod/_definst_/amlst:2016/2016-0229-1210-00/media_w2080225898_b564000_t64NTAwaw==_57.ts' for reading
[http @ 0x7fb294019200] Opening 'http://hlsvod.shugiintv.go.jp/vod/_definst_/amlst:2016/2016-0229-1210-00/media_w2080225898_b564000_t64NTAwaw==_58.ts' for reading
[http @ 0x7fb29580a800] Opening 'http://hlsvod.shugiintv.go.jp/vod/_definst_/amlst:2016/2016-0229-1210-00/media_w2080225898_b564000_t64NTAwaw==_59.ts' for reading
[http @ 0x7fb294019200] Opening 'http://hlsvod.shugiintv.go.jp/vod/_definst_/amlst:2016/2016-0229-1210-00/media_w2080225898_b564000_t64NTAwaw==_60.ts' for reading
frame=17910 fps=2303 q=-1.0 size=   41472kB time=00:09:56.98 bitrate= 569.1kbits[http @ 0x7fb29580a800] Opening 'http://hlsvod.shugiintv.go.jp/vod/_definst_/amlst:2016/2016-0229-1210-00/media_w2080225898_b564000_t64NTAwaw==_61.ts' for reading
[http @ 0x7fb294019200] Opening 'http://hlsvod.shugiintv.go.jp/vod/_definst_/amlst:2016/2016-0229-1210-00/media_w2080225898_b564000_t64NTAwaw==_62.ts' for reading
[http @ 0x7fb29580a800] Opening 'http://hlsvod.shugiintv.go.jp/vod/_definst_/amlst:2016/2016-0229-1210-00/media_w2080225898_b564000_t64NTAwaw==_63.ts' for reading
[http @ 0x7fb294019200] Opening 'http://hlsvod.shugiintv.go.jp/vod/_definst_/amlst:2016/2016-0229-1210-00/media_w2080225898_b564000_t64NTAwaw==_64.ts' for reading
[http @ 0x7fb29580a800] Opening 'http://hlsvod.shugiintv.go.jp/vod/_definst_/amlst:2016/2016-0229-1210-00/media_w2080225898_b564000_t64NTAwaw==_65.ts' for reading
[http @ 0x7fb294019200] Opening 'http://hlsvod.shugiintv.go.jp/vod/_definst_/amlst:2016/2016-0229-1210-00/media_w2080225898_b564000_t64NTAwaw==_66.ts' for reading
[http @ 0x7fb29580a800] Opening 'http://hlsvod.shugiintv.go.jp/vod/_definst_/amlst:2016/2016-0229-1210-00/media_w2080225898_b564000_t64NTAwaw==_67.ts' for reading
frame=20083 fps=2425 q=-1.0 size=   44544kB time=00:11:09.43 bitrate= 545.1kbits[http @ 0x7fb294019200] Opening 'http://hlsvod.shugiintv.go.jp/vod/_definst_/amlst:2016/2016-0229-1210-00/media_w2080225898_b564000_t64NTAwaw==_68.ts' for reading
[http @ 0x7fb29580a800] Opening 'http://hlsvod.shugiintv.go.jp/vod/_definst_/amlst:2016/2016-0229-1210-00/media_w2080225898_b564000_t64NTAwaw==_69.ts' for reading
[http @ 0x7fb294019200] Opening 'http://hlsvod.shugiintv.go.jp/vod/_definst_/amlst:2016/2016-0229-1210-00/media_w2080225898_b564000_t64NTAwaw==_70.ts' for reading
[http @ 0x7fb29580a800] Opening 'http://hlsvod.shugiintv.go.jp/vod/_definst_/amlst:2016/2016-0229-1210-00/media_w2080225898_b564000_t64NTAwaw==_71.ts' for reading
[http @ 0x7fb294019200] Opening 'http://hlsvod.shugiintv.go.jp/vod/_definst_/amlst:2016/2016-0229-1210-00/media_w2080225898_b564000_t64NTAwaw==_72.ts' for reading
[http @ 0x7fb29580a800] Opening 'http://hlsvod.shugiintv.go.jp/vod/_definst_/amlst:2016/2016-0229-1210-00/media_w2080225898_b564000_t64NTAwaw==_73.ts' for reading
[http @ 0x7fb294019200] Opening 'http://hlsvod.shugiintv.go.jp/vod/_definst_/amlst:2016/2016-0229-1210-00/media_w2080225898_b564000_t64NTAwaw==_74.ts' for reading
[http @ 0x7fb29580a800] Opening 'http://hlsvod.shugiintv.go.jp/vod/_definst_/amlst:2016/2016-0229-1210-00/media_w2080225898_b564000_t64NTAwaw==_75.ts' for reading
frame=22201 fps=2525 q=-1.0 size=   47616kB time=00:12:20.00 bitrate= 527.1kbits[http @ 0x7fb294019200] Opening 'http://hlsvod.shugiintv.go.jp/vod/_definst_/amlst:2016/2016-0229-1210-00/media_w2080225898_b564000_t64NTAwaw==_76.ts' for reading
[http @ 0x7fb29580a800] Opening 'http://hlsvod.shugiintv.go.jp/vod/_definst_/amlst:2016/2016-0229-1210-00/media_w2080225898_b564000_t64NTAwaw==_77.ts' for reading
[http @ 0x7fb294019200] Opening 'http://hlsvod.shugiintv.go.jp/vod/_definst_/amlst:2016/2016-0229-1210-00/media_w2080225898_b564000_t64NTAwaw==_78.ts' for reading
[http @ 0x7fb29580a800] Opening 'http://hlsvod.shugiintv.go.jp/vod/_definst_/amlst:2016/2016-0229-1210-00/media_w2080225898_b564000_t64NTAwaw==_79.ts' for reading
[http @ 0x7fb294019200] Opening 'http://hlsvod.shugiintv.go.jp/vod/_definst_/amlst:2016/2016-0229-1210-00/media_w2080225898_b564000_t64NTAwaw==_80.ts' for reading
[http @ 0x7fb29580a800] Opening 'http://hlsvod.shugiintv.go.jp/vod/_definst_/amlst:2016/2016-0229-1210-00/media_w2080225898_b564000_t64NTAwaw==_81.ts' for reading
frame=24181 fps=2602 q=-1.0 size=   50688kB time=00:13:26.00 bitrate= 515.2kbits[http @ 0x7fb294019200] Opening 'http://hlsvod.shugiintv.go.jp/vod/_definst_/amlst:2016/2016-0229-1210-00/media_w2080225898_b564000_t64NTAwaw==_82.ts' for reading
[http @ 0x7fb29580a800] Opening 'http://hlsvod.shugiintv.go.jp/vod/_definst_/amlst:2016/2016-0229-1210-00/media_w2080225898_b564000_t64NTAwaw==_83.ts' for reading
[http @ 0x7fb294019200] Opening 'http://hlsvod.shugiintv.go.jp/vod/_definst_/amlst:2016/2016-0229-1210-00/media_w2080225898_b564000_t64NTAwaw==_84.ts' for reading
[http @ 0x7fb29580a800] Opening 'http://hlsvod.shugiintv.go.jp/vod/_definst_/amlst:2016/2016-0229-1210-00/media_w2080225898_b564000_t64NTAwaw==_85.ts' for reading
[http @ 0x7fb294019200] Opening 'http://hlsvod.shugiintv.go.jp/vod/_definst_/amlst:2016/2016-0229-1210-00/media_w2080225898_b564000_t64NTAwaw==_86.ts' for reading
[http @ 0x7fb29580a800] Opening 'http://hlsvod.shugiintv.go.jp/vod/_definst_/amlst:2016/2016-0229-1210-00/media_w2080225898_b564000_t64NTAwaw==_87.ts' for reading
frame=26010 fps=2651 q=-1.0 size=   53760kB time=00:14:26.98 bitrate= 508.0kbits[http @ 0x7fb294019200] Opening 'http://hlsvod.shugiintv.go.jp/vod/_definst_/amlst:2016/2016-0229-1210-00/media_w2080225898_b564000_t64NTAwaw==_88.ts' for reading
[http @ 0x7fb29580a800] Opening 'http://hlsvod.shugiintv.go.jp/vod/_definst_/amlst:2016/2016-0229-1210-00/media_w2080225898_b564000_t64NTAwaw==_89.ts' for reading
frame=26581 fps=2577 q=-1.0 size=   57344kB time=00:14:46.00 bitrate= 530.2kbits[http @ 0x7fb294019200] Opening 'http://hlsvod.shugiintv.go.jp/vod/_definst_/amlst:2016/2016-0229-1210-00/media_w2080225898_b564000_t64NTAwaw==_90.ts' for reading
[http @ 0x7fb29580a800] Opening 'http://hlsvod.shugiintv.go.jp/vod/_definst_/amlst:2016/2016-0229-1210-00/media_w2080225898_b564000_t64NTAwaw==_91.ts' for reading
frame=27120 fps=2507 q=-1.0 size=   60672kB time=00:15:03.97 bitrate= 549.8kbits[http @ 0x7fb294019200] Opening 'http://hlsvod.shugiintv.go.jp/vod/_definst_/amlst:2016/2016-0229-1210-00/media_w2080225898_b564000_t64NTAwaw==_92.ts' for reading
frame=27550 fps=2434 q=-1.0 size=   63232kB time=00:15:18.30 bitrate= 564.1kbits[http @ 0x7fb29580a800] Opening 'http://hlsvod.shugiintv.go.jp/vod/_definst_/amlst:2016/2016-0229-1210-00/media_w2080225898_b564000_t64NTAwaw==_93.ts' for reading
[http @ 0x7fb294019200] Opening 'http://hlsvod.shugiintv.go.jp/vod/_definst_/amlst:2016/2016-0229-1210-00/media_w2080225898_b564000_t64NTAwaw==_94.ts' for reading
frame=28141 fps=2379 q=-1.0 size=   66560kB time=00:15:38.00 bitrate= 581.3kbits[http @ 0x7fb29580a800] Opening 'http://hlsvod.shugiintv.go.jp/vod/_definst_/amlst:2016/2016-0229-1210-00/media_w2080225898_b564000_t64NTAwaw==_95.ts' for reading
[http @ 0x7fb294019200] Opening 'http://hlsvod.shugiintv.go.jp/vod/_definst_/amlst:2016/2016-0229-1210-00/media_w2080225898_b564000_t64NTAwaw==_96.ts' for reading
frame=28740 fps=2331 q=-1.0 size=   69888kB time=00:15:57.98 bitrate= 597.6kbits[http @ 0x7fb29580a800] Opening 'http://hlsvod.shugiintv.go.jp/vod/_definst_/amlst:2016/2016-0229-1210-00/media_w2080225898_b564000_t64NTAwaw==_97.ts' for reading
[http @ 0x7fb294019200] Opening 'http://hlsvod.shugiintv.go.jp/vod/_definst_/amlst:2016/2016-0229-1210-00/media_w2080225898_b564000_t64NTAwaw==_98.ts' for reading
[http @ 0x7fb29580a800] Opening 'http://hlsvod.shugiintv.go.jp/vod/_definst_/amlst:2016/2016-0229-1210-00/media_w2080225898_b564000_t64NTAwaw==_99.ts' for reading
[http @ 0x7fb294019200] Opening 'http://hlsvod.shugiintv.go.jp/vod/_definst_/amlst:2016/2016-0229-1210-00/media_w2080225898_b564000_t64NTAwaw==_100.ts' for reading
[http @ 0x7fb29580a800] Opening 'http://hlsvod.shugiintv.go.jp/vod/_definst_/amlst:2016/2016-0229-1210-00/media_w2080225898_b564000_t64NTAwaw==_101.ts' for reading
[http @ 0x7fb294019200] Opening 'http://hlsvod.shugiintv.go.jp/vod/_definst_/amlst:2016/2016-0229-1210-00/media_w2080225898_b564000_t64NTAwaw==_102.ts' for reading
[http @ 0x7fb29580a800] Opening 'http://hlsvod.shugiintv.go.jp/vod/_definst_/amlst:2016/2016-0229-1210-00/media_w2080225898_b564000_t64NTAwaw==_103.ts' for reading
[http @ 0x7fb294019200] Opening 'http://hlsvod.shugiintv.go.jp/vod/_definst_/amlst:2016/2016-0229-1210-00/media_w2080225898_b564000_t64NTAwaw==_104.ts' for reading
[http @ 0x7fb29580a800] Opening 'http://hlsvod.shugiintv.go.jp/vod/_definst_/amlst:2016/2016-0229-1210-00/media_w2080225898_b564000_t64NTAwaw==_105.ts' for reading
[http @ 0x7fb294019200] Opening 'http://hlsvod.shugiintv.go.jp/vod/_definst_/amlst:2016/2016-0229-1210-00/media_w2080225898_b564000_t64NTAwaw==_106.ts' for reading
[http @ 0x7fb29580a800] Opening 'http://hlsvod.shugiintv.go.jp/vod/_definst_/amlst:2016/2016-0229-1210-00/media_w2080225898_b564000_t64NTAwaw==_107.ts' for reading
[http @ 0x7fb294019200] Opening 'http://hlsvod.shugiintv.go.jp/vod/_definst_/amlst:2016/2016-0229-1210-00/media_w2080225898_b564000_t64NTAwaw==_108.ts' for reading
[http @ 0x7fb29580a800] Opening 'http://hlsvod.shugiintv.go.jp/vod/_definst_/amlst:2016/2016-0229-1210-00/media_w2080225898_b564000_t64NTAwaw==_109.ts' for reading
[http @ 0x7fb294019200] Opening 'http://hlsvod.shugiintv.go.jp/vod/_definst_/amlst:2016/2016-0229-1210-00/media_w2080225898_b564000_t64NTAwaw==_110.ts' for reading
[http @ 0x7fb29580a800] Opening 'http://hlsvod.shugiintv.go.jp/vod/_definst_/amlst:2016/2016-0229-1210-00/media_w2080225898_b564000_t64NTAwaw==_111.ts' for reading
[http @ 0x7fb294019200] Opening 'http://hlsvod.shugiintv.go.jp/vod/_definst_/amlst:2016/2016-0229-1210-00/media_w2080225898_b564000_t64NTAwaw==_112.ts' for reading
[http @ 0x7fb29580a800] Opening 'http://hlsvod.shugiintv.go.jp/vod/_definst_/amlst:2016/2016-0229-1210-00/media_w2080225898_b564000_t64NTAwaw==_113.ts' for reading
[http @ 0x7fb294019200] Opening 'http://hlsvod.shugiintv.go.jp/vod/_definst_/amlst:2016/2016-0229-1210-00/media_w2080225898_b564000_t64NTAwaw==_114.ts' for reading
[http @ 0x7fb29580a800] Opening 'http://hlsvod.shugiintv.go.jp/vod/_definst_/amlst:2016/2016-0229-1210-00/media_w2080225898_b564000_t64NTAwaw==_115.ts' for reading
[http @ 0x7fb294019200] Opening 'http://hlsvod.shugiintv.go.jp/vod/_definst_/amlst:2016/2016-0229-1210-00/media_w2080225898_b564000_t64NTAwaw==_116.ts' for reading
[http @ 0x7fb29580a800] Opening 'http://hlsvod.shugiintv.go.jp/vod/_definst_/amlst:2016/2016-0229-1210-00/media_w2080225898_b564000_t64NTAwaw==_117.ts' for reading
[http @ 0x7fb294019200] Opening 'http://hlsvod.shugiintv.go.jp/vod/_definst_/amlst:2016/2016-0229-1210-00/media_w2080225898_b564000_t64NTAwaw==_118.ts' for reading
[http @ 0x7fb29580a800] Opening 'http://hlsvod.shugiintv.go.jp/vod/_definst_/amlst:2016/2016-0229-1210-00/media_w2080225898_b564000_t64NTAwaw==_119.ts' for reading
[http @ 0x7fb294019200] Opening 'http://hlsvod.shugiintv.go.jp/vod/_definst_/amlst:2016/2016-0229-1210-00/media_w2080225898_b564000_t64NTAwaw==_120.ts' for reading
[http @ 0x7fb29580a800] Opening 'http://hlsvod.shugiintv.go.jp/vod/_definst_/amlst:2016/2016-0229-1210-00/media_w2080225898_b564000_t64NTAwaw==_121.ts' for reading
[http @ 0x7fb294019200] Opening 'http://hlsvod.shugiintv.go.jp/vod/_definst_/amlst:2016/2016-0229-1210-00/media_w2080225898_b564000_t64NTAwaw==_122.ts' for reading
[http @ 0x7fb29580a800] Opening 'http://hlsvod.shugiintv.go.jp/vod/_definst_/amlst:2016/2016-0229-1210-00/media_w2080225898_b564000_t64NTAwaw==_123.ts' for reading
[http @ 0x7fb294019200] Opening 'http://hlsvod.shugiintv.go.jp/vod/_definst_/amlst:2016/2016-0229-1210-00/media_w2080225898_b564000_t64NTAwaw==_124.ts' for reading
[http @ 0x7fb29580a800] Opening 'http://hlsvod.shugiintv.go.jp/vod/_definst_/amlst:2016/2016-0229-1210-00/media_w2080225898_b564000_t64NTAwaw==_125.ts' for reading
[http @ 0x7fb294019200] Opening 'http://hlsvod.shugiintv.go.jp/vod/_definst_/amlst:2016/2016-0229-1210-00/media_w2080225898_b564000_t64NTAwaw==_126.ts' for reading
[http @ 0x7fb29580a800] Opening 'http://hlsvod.shugiintv.go.jp/vod/_definst_/amlst:2016/2016-0229-1210-00/media_w2080225898_b564000_t64NTAwaw==_127.ts' for reading
[http @ 0x7fb294019200] Opening 'http://hlsvod.shugiintv.go.jp/vod/_definst_/amlst:2016/2016-0229-1210-00/media_w2080225898_b564000_t64NTAwaw==_128.ts' for reading
[http @ 0x7fb29580a800] Opening 'http://hlsvod.shugiintv.go.jp/vod/_definst_/amlst:2016/2016-0229-1210-00/media_w2080225898_b564000_t64NTAwaw==_129.ts' for reading
[http @ 0x7fb294019200] Opening 'http://hlsvod.shugiintv.go.jp/vod/_definst_/amlst:2016/2016-0229-1210-00/media_w2080225898_b564000_t64NTAwaw==_130.ts' for reading
[http @ 0x7fb29580a800] Opening 'http://hlsvod.shugiintv.go.jp/vod/_definst_/amlst:2016/2016-0229-1210-00/media_w2080225898_b564000_t64NTAwaw==_131.ts' for reading
[http @ 0x7fb294019200] Opening 'http://hlsvod.shugiintv.go.jp/vod/_definst_/amlst:2016/2016-0229-1210-00/media_w2080225898_b564000_t64NTAwaw==_132.ts' for reading
[http @ 0x7fb29580a800] Opening 'http://hlsvod.shugiintv.go.jp/vod/_definst_/amlst:2016/2016-0229-1210-00/media_w2080225898_b564000_t64NTAwaw==_133.ts' for reading
[http @ 0x7fb294019200] Opening 'http://hlsvod.shugiintv.go.jp/vod/_definst_/amlst:2016/2016-0229-1210-00/media_w2080225898_b564000_t64NTAwaw==_134.ts' for reading
[http @ 0x7fb29580a800] Opening 'http://hlsvod.shugiintv.go.jp/vod/_definst_/amlst:2016/2016-0229-1210-00/media_w2080225898_b564000_t64NTAwaw==_135.ts' for reading
[http @ 0x7fb294019200] Opening 'http://hlsvod.shugiintv.go.jp/vod/_definst_/amlst:2016/2016-0229-1210-00/media_w2080225898_b564000_t64NTAwaw==_136.ts' for reading
[http @ 0x7fb29580a800] Opening 'http://hlsvod.shugiintv.go.jp/vod/_definst_/amlst:2016/2016-0229-1210-00/media_w2080225898_b564000_t64NTAwaw==_137.ts' for reading
[http @ 0x7fb294019200] Opening 'http://hlsvod.shugiintv.go.jp/vod/_definst_/amlst:2016/2016-0229-1210-00/media_w2080225898_b564000_t64NTAwaw==_138.ts' for reading
[http @ 0x7fb29580a800] Opening 'http://hlsvod.shugiintv.go.jp/vod/_definst_/amlst:2016/2016-0229-1210-00/media_w2080225898_b564000_t64NTAwaw==_139.ts' for reading
[http @ 0x7fb294019200] Opening 'http://hlsvod.shugiintv.go.jp/vod/_definst_/amlst:2016/2016-0229-1210-00/media_w2080225898_b564000_t64NTAwaw==_140.ts' for reading
[http @ 0x7fb29580a800] Opening 'http://hlsvod.shugiintv.go.jp/vod/_definst_/amlst:2016/2016-0229-1210-00/media_w2080225898_b564000_t64NTAwaw==_141.ts' for reading
[http @ 0x7fb294019200] Opening 'http://hlsvod.shugiintv.go.jp/vod/_definst_/amlst:2016/2016-0229-1210-00/media_w2080225898_b564000_t64NTAwaw==_142.ts' for reading
[http @ 0x7fb29580a800] Opening 'http://hlsvod.shugiintv.go.jp/vod/_definst_/amlst:2016/2016-0229-1210-00/media_w2080225898_b564000_t64NTAwaw==_143.ts' for reading
[http @ 0x7fb294019200] Opening 'http://hlsvod.shugiintv.go.jp/vod/_definst_/amlst:2016/2016-0229-1210-00/media_w2080225898_b564000_t64NTAwaw==_144.ts' for reading
[http @ 0x7fb29580a800] Opening 'http://hlsvod.shugiintv.go.jp/vod/_definst_/amlst:2016/2016-0229-1210-00/media_w2080225898_b564000_t64NTAwaw==_145.ts' for reading
[http @ 0x7fb294019200] Opening 'http://hlsvod.shugiintv.go.jp/vod/_definst_/amlst:2016/2016-0229-1210-00/media_w2080225898_b564000_t64NTAwaw==_146.ts' for reading
[http @ 0x7fb29580a800] Opening 'http://hlsvod.shugiintv.go.jp/vod/_definst_/amlst:2016/2016-0229-1210-00/media_w2080225898_b564000_t64NTAwaw==_147.ts' for reading
[http @ 0x7fb294019200] Opening 'http://hlsvod.shugiintv.go.jp/vod/_definst_/amlst:2016/2016-0229-1210-00/media_w2080225898_b564000_t64NTAwaw==_148.ts' for reading
[http @ 0x7fb29580a800] Opening 'http://hlsvod.shugiintv.go.jp/vod/_definst_/amlst:2016/2016-0229-1210-00/media_w2080225898_b564000_t64NTAwaw==_149.ts' for reading
[http @ 0x7fb294019200] Opening 'http://hlsvod.shugiintv.go.jp/vod/_definst_/amlst:2016/2016-0229-1210-00/media_w2080225898_b564000_t64NTAwaw==_150.ts' for reading
[http @ 0x7fb29580a800] Opening 'http://hlsvod.shugiintv.go.jp/vod/_definst_/amlst:2016/2016-0229-1210-00/media_w2080225898_b564000_t64NTAwaw==_151.ts' for reading
[http @ 0x7fb294019200] Opening 'http://hlsvod.shugiintv.go.jp/vod/_definst_/amlst:2016/2016-0229-1210-00/media_w2080225898_b564000_t64NTAwaw==_152.ts' for reading
[http @ 0x7fb29580a800] Opening 'http://hlsvod.shugiintv.go.jp/vod/_definst_/amlst:2016/2016-0229-1210-00/media_w2080225898_b564000_t64NTAwaw==_153.ts' for reading
[http @ 0x7fb294019200] Opening 'http://hlsvod.shugiintv.go.jp/vod/_definst_/amlst:2016/2016-0229-1210-00/media_w2080225898_b564000_t64NTAwaw==_154.ts' for reading
[http @ 0x7fb29580a800] Opening 'http://hlsvod.shugiintv.go.jp/vod/_definst_/amlst:2016/2016-0229-1210-00/media_w2080225898_b564000_t64NTAwaw==_155.ts' for reading
[http @ 0x7fb294019200] Opening 'http://hlsvod.shugiintv.go.jp/vod/_definst_/amlst:2016/2016-0229-1210-00/media_w2080225898_b564000_t64NTAwaw==_156.ts' for reading
[http @ 0x7fb29580a800] Opening 'http://hlsvod.shugiintv.go.jp/vod/_definst_/amlst:2016/2016-0229-1210-00/media_w2080225898_b564000_t64NTAwaw==_157.ts' for reading
[http @ 0x7fb294019200] Opening 'http://hlsvod.shugiintv.go.jp/vod/_definst_/amlst:2016/2016-0229-1210-00/media_w2080225898_b564000_t64NTAwaw==_158.ts' for reading
[http @ 0x7fb29580a800] Opening 'http://hlsvod.shugiintv.go.jp/vod/_definst_/amlst:2016/2016-0229-1210-00/media_w2080225898_b564000_t64NTAwaw==_159.ts' for reading
[http @ 0x7fb294019200] Opening 'http://hlsvod.shugiintv.go.jp/vod/_definst_/amlst:2016/2016-0229-1210-00/media_w2080225898_b564000_t64NTAwaw==_160.ts' for reading
[http @ 0x7fb29580a800] Opening 'http://hlsvod.shugiintv.go.jp/vod/_definst_/amlst:2016/2016-0229-1210-00/media_w2080225898_b564000_t64NTAwaw==_161.ts' for reading
[http @ 0x7fb294019200] Opening 'http://hlsvod.shugiintv.go.jp/vod/_definst_/amlst:2016/2016-0229-1210-00/media_w2080225898_b564000_t64NTAwaw==_162.ts' for reading
[http @ 0x7fb29580a800] Opening 'http://hlsvod.shugiintv.go.jp/vod/_definst_/amlst:2016/2016-0229-1210-00/media_w2080225898_b564000_t64NTAwaw==_163.ts' for reading
[http @ 0x7fb294019200] Opening 'http://hlsvod.shugiintv.go.jp/vod/_definst_/amlst:2016/2016-0229-1210-00/media_w2080225898_b564000_t64NTAwaw==_164.ts' for reading
[http @ 0x7fb29580a800] Opening 'http://hlsvod.shugiintv.go.jp/vod/_definst_/amlst:2016/2016-0229-1210-00/media_w2080225898_b564000_t64NTAwaw==_165.ts' for reading
[http @ 0x7fb294019200] Opening 'http://hlsvod.shugiintv.go.jp/vod/_definst_/amlst:2016/2016-0229-1210-00/media_w2080225898_b564000_t64NTAwaw==_166.ts' for reading
[http @ 0x7fb29580a800] Opening 'http://hlsvod.shugiintv.go.jp/vod/_definst_/amlst:2016/2016-0229-1210-00/media_w2080225898_b564000_t64NTAwaw==_167.ts' for reading
[http @ 0x7fb294019200] Opening 'http://hlsvod.shugiintv.go.jp/vod/_definst_/amlst:2016/2016-0229-1210-00/media_w2080225898_b564000_t64NTAwaw==_168.ts' for reading
[http @ 0x7fb29580a800] Opening 'http://hlsvod.shugiintv.go.jp/vod/_definst_/amlst:2016/2016-0229-1210-00/media_w2080225898_b564000_t64NTAwaw==_169.ts' for reading
[http @ 0x7fb294019200] Opening 'http://hlsvod.shugiintv.go.jp/vod/_definst_/amlst:2016/2016-0229-1210-00/media_w2080225898_b564000_t64NTAwaw==_170.ts' for reading
[http @ 0x7fb29580a800] Opening 'http://hlsvod.shugiintv.go.jp/vod/_definst_/amlst:2016/2016-0229-1210-00/media_w2080225898_b564000_t64NTAwaw==_171.ts' for reading
[http @ 0x7fb294019200] Opening 'http://hlsvod.shugiintv.go.jp/vod/_definst_/amlst:2016/2016-0229-1210-00/media_w2080225898_b564000_t64NTAwaw==_172.ts' for reading
[http @ 0x7fb29580a800] Opening 'http://hlsvod.shugiintv.go.jp/vod/_definst_/amlst:2016/2016-0229-1210-00/media_w2080225898_b564000_t64NTAwaw==_173.ts' for reading
[http @ 0x7fb294019200] Opening 'http://hlsvod.shugiintv.go.jp/vod/_definst_/amlst:2016/2016-0229-1210-00/media_w2080225898_b564000_t64NTAwaw==_174.ts' for reading
[http @ 0x7fb29580a800] Opening 'http://hlsvod.shugiintv.go.jp/vod/_definst_/amlst:2016/2016-0229-1210-00/media_w2080225898_b564000_t64NTAwaw==_175.ts' for reading
[http @ 0x7fb294019200] Opening 'http://hlsvod.shugiintv.go.jp/vod/_definst_/amlst:2016/2016-0229-1210-00/media_w2080225898_b564000_t64NTAwaw==_176.ts' for reading
[http @ 0x7fb29580a800] Opening 'http://hlsvod.shugiintv.go.jp/vod/_definst_/amlst:2016/2016-0229-1210-00/media_w2080225898_b564000_t64NTAwaw==_177.ts' for reading
[http @ 0x7fb294019200] Opening 'http://hlsvod.shugiintv.go.jp/vod/_definst_/amlst:2016/2016-0229-1210-00/media_w2080225898_b564000_t64NTAwaw==_178.ts' for reading
[http @ 0x7fb29580a800] Opening 'http://hlsvod.shugiintv.go.jp/vod/_definst_/amlst:2016/2016-0229-1210-00/media_w2080225898_b564000_t64NTAwaw==_179.ts' for reading
[http @ 0x7fb294019200] Opening 'http://hlsvod.shugiintv.go.jp/vod/_definst_/amlst:2016/2016-0229-1210-00/media_w2080225898_b564000_t64NTAwaw==_180.ts' for reading
[http @ 0x7fb29580a800] Opening 'http://hlsvod.shugiintv.go.jp/vod/_definst_/amlst:2016/2016-0229-1210-00/media_w2080225898_b564000_t64NTAwaw==_181.ts' for reading
[http @ 0x7fb294019200] Opening 'http://hlsvod.shugiintv.go.jp/vod/_definst_/amlst:2016/2016-0229-1210-00/media_w2080225898_b564000_t64NTAwaw==_182.ts' for reading
[http @ 0x7fb29580a800] Opening 'http://hlsvod.shugiintv.go.jp/vod/_definst_/amlst:2016/2016-0229-1210-00/media_w2080225898_b564000_t64NTAwaw==_183.ts' for reading
[http @ 0x7fb294019200] Opening 'http://hlsvod.shugiintv.go.jp/vod/_definst_/amlst:2016/2016-0229-1210-00/media_w2080225898_b564000_t64NTAwaw==_184.ts' for reading
[http @ 0x7fb29580a800] Opening 'http://hlsvod.shugiintv.go.jp/vod/_definst_/amlst:2016/2016-0229-1210-00/media_w2080225898_b564000_t64NTAwaw==_185.ts' for reading
[http @ 0x7fb294019200] Opening 'http://hlsvod.shugiintv.go.jp/vod/_definst_/amlst:2016/2016-0229-1210-00/media_w2080225898_b564000_t64NTAwaw==_186.ts' for reading
[http @ 0x7fb29580a800] Opening 'http://hlsvod.shugiintv.go.jp/vod/_definst_/amlst:2016/2016-0229-1210-00/media_w2080225898_b564000_t64NTAwaw==_187.ts' for reading
[http @ 0x7fb294019200] Opening 'http://hlsvod.shugiintv.go.jp/vod/_definst_/amlst:2016/2016-0229-1210-00/media_w2080225898_b564000_t64NTAwaw==_188.ts' for reading
[http @ 0x7fb29580a800] Opening 'http://hlsvod.shugiintv.go.jp/vod/_definst_/amlst:2016/2016-0229-1210-00/media_w2080225898_b564000_t64NTAwaw==_189.ts' for reading
[http @ 0x7fb294019200] Opening 'http://hlsvod.shugiintv.go.jp/vod/_definst_/amlst:2016/2016-0229-1210-00/media_w2080225898_b564000_t64NTAwaw==_190.ts' for reading
[http @ 0x7fb29580a800] Opening 'http://hlsvod.shugiintv.go.jp/vod/_definst_/amlst:2016/2016-0229-1210-00/media_w2080225898_b564000_t64NTAwaw==_191.ts' for reading
[http @ 0x7fb294019200] Opening 'http://hlsvod.shugiintv.go.jp/vod/_definst_/amlst:2016/2016-0229-1210-00/media_w2080225898_b564000_t64NTAwaw==_192.ts' for reading
[http @ 0x7fb29580a800] Opening 'http://hlsvod.shugiintv.go.jp/vod/_definst_/amlst:2016/2016-0229-1210-00/media_w2080225898_b564000_t64NTAwaw==_193.ts' for reading
[http @ 0x7fb294019200] Opening 'http://hlsvod.shugiintv.go.jp/vod/_definst_/amlst:2016/2016-0229-1210-00/media_w2080225898_b564000_t64NTAwaw==_194.ts' for reading
[http @ 0x7fb29580a800] Opening 'http://hlsvod.shugiintv.go.jp/vod/_definst_/amlst:2016/2016-0229-1210-00/media_w2080225898_b564000_t64NTAwaw==_195.ts' for reading
[http @ 0x7fb294019200] Opening 'http://hlsvod.shugiintv.go.jp/vod/_definst_/amlst:2016/2016-0229-1210-00/media_w2080225898_b564000_t64NTAwaw==_196.ts' for reading
[http @ 0x7fb29580a800] Opening 'http://hlsvod.shugiintv.go.jp/vod/_definst_/amlst:2016/2016-0229-1210-00/media_w2080225898_b564000_t64NTAwaw==_197.ts' for reading
[http @ 0x7fb294019200] Opening 'http://hlsvod.shugiintv.go.jp/vod/_definst_/amlst:2016/2016-0229-1210-00/media_w2080225898_b564000_t64NTAwaw==_198.ts' for reading
[http @ 0x7fb29580a800] Opening 'http://hlsvod.shugiintv.go.jp/vod/_definst_/amlst:2016/2016-0229-1210-00/media_w2080225898_b564000_t64NTAwaw==_199.ts' for reading
[http @ 0x7fb294019200] Opening 'http://hlsvod.shugiintv.go.jp/vod/_definst_/amlst:2016/2016-0229-1210-00/media_w2080225898_b564000_t64NTAwaw==_200.ts' for reading
[http @ 0x7fb29580a800] Opening 'http://hlsvod.shugiintv.go.jp/vod/_definst_/amlst:2016/2016-0229-1210-00/media_w2080225898_b564000_t64NTAwaw==_201.ts' for reading
[http @ 0x7fb294019200] Opening 'http://hlsvod.shugiintv.go.jp/vod/_definst_/amlst:2016/2016-0229-1210-00/media_w2080225898_b564000_t64NTAwaw==_202.ts' for reading
[http @ 0x7fb29580a800] Opening 'http://hlsvod.shugiintv.go.jp/vod/_definst_/amlst:2016/2016-0229-1210-00/media_w2080225898_b564000_t64NTAwaw==_203.ts' for reading
[http @ 0x7fb294019200] Opening 'http://hlsvod.shugiintv.go.jp/vod/_definst_/amlst:2016/2016-0229-1210-00/media_w2080225898_b564000_t64NTAwaw==_204.ts' for reading
[http @ 0x7fb29580a800] Opening 'http://hlsvod.shugiintv.go.jp/vod/_definst_/amlst:2016/2016-0229-1210-00/media_w2080225898_b564000_t64NTAwaw==_205.ts' for reading
[http @ 0x7fb294019200] Opening 'http://hlsvod.shugiintv.go.jp/vod/_definst_/amlst:2016/2016-0229-1210-00/media_w2080225898_b564000_t64NTAwaw==_206.ts' for reading
[http @ 0x7fb29580a800] Opening 'http://hlsvod.shugiintv.go.jp/vod/_definst_/amlst:2016/2016-0229-1210-00/media_w2080225898_b564000_t64NTAwaw==_207.ts' for reading
[http @ 0x7fb294019200] Opening 'http://hlsvod.shugiintv.go.jp/vod/_definst_/amlst:2016/2016-0229-1210-00/media_w2080225898_b564000_t64NTAwaw==_208.ts' for reading
[http @ 0x7fb29580a800] Opening 'http://hlsvod.shugiintv.go.jp/vod/_definst_/amlst:2016/2016-0229-1210-00/media_w2080225898_b564000_t64NTAwaw==_209.ts' for reading
[http @ 0x7fb294019200] Opening 'http://hlsvod.shugiintv.go.jp/vod/_definst_/amlst:2016/2016-0229-1210-00/media_w2080225898_b564000_t64NTAwaw==_210.ts' for reading
[http @ 0x7fb29580a800] Opening 'http://hlsvod.shugiintv.go.jp/vod/_definst_/amlst:2016/2016-0229-1210-00/media_w2080225898_b564000_t64NTAwaw==_211.ts' for reading
[http @ 0x7fb294019200] Opening 'http://hlsvod.shugiintv.go.jp/vod/_definst_/amlst:2016/2016-0229-1210-00/media_w2080225898_b564000_t64NTAwaw==_212.ts' for reading
[http @ 0x7fb29580a800] Opening 'http://hlsvod.shugiintv.go.jp/vod/_definst_/amlst:2016/2016-0229-1210-00/media_w2080225898_b564000_t64NTAwaw==_213.ts' for reading
[http @ 0x7fb294019200] Opening 'http://hlsvod.shugiintv.go.jp/vod/_definst_/amlst:2016/2016-0229-1210-00/media_w2080225898_b564000_t64NTAwaw==_214.ts' for reading
[http @ 0x7fb29580a800] Opening 'http://hlsvod.shugiintv.go.jp/vod/_definst_/amlst:2016/2016-0229-1210-00/media_w2080225898_b564000_t64NTAwaw==_215.ts' for reading
[http @ 0x7fb294019200] Opening 'http://hlsvod.shugiintv.go.jp/vod/_definst_/amlst:2016/2016-0229-1210-00/media_w2080225898_b564000_t64NTAwaw==_216.ts' for reading
[http @ 0x7fb29580a800] Opening 'http://hlsvod.shugiintv.go.jp/vod/_definst_/amlst:2016/2016-0229-1210-00/media_w2080225898_b564000_t64NTAwaw==_217.ts' for reading
[http @ 0x7fb294019200] Opening 'http://hlsvod.shugiintv.go.jp/vod/_definst_/amlst:2016/2016-0229-1210-00/media_w2080225898_b564000_t64NTAwaw==_218.ts' for reading
[http @ 0x7fb29580a800] Opening 'http://hlsvod.shugiintv.go.jp/vod/_definst_/amlst:2016/2016-0229-1210-00/media_w2080225898_b564000_t64NTAwaw==_219.ts' for reading
[http @ 0x7fb294019200] Opening 'http://hlsvod.shugiintv.go.jp/vod/_definst_/amlst:2016/2016-0229-1210-00/media_w2080225898_b564000_t64NTAwaw==_220.ts' for reading
[http @ 0x7fb29580a800] Opening 'http://hlsvod.shugiintv.go.jp/vod/_definst_/amlst:2016/2016-0229-1210-00/media_w2080225898_b564000_t64NTAwaw==_221.ts' for reading
[http @ 0x7fb294019200] Opening 'http://hlsvod.shugiintv.go.jp/vod/_definst_/amlst:2016/2016-0229-1210-00/media_w2080225898_b564000_t64NTAwaw==_222.ts' for reading
[http @ 0x7fb29580a800] Opening 'http://hlsvod.shugiintv.go.jp/vod/_definst_/amlst:2016/2016-0229-1210-00/media_w2080225898_b564000_t64NTAwaw==_223.ts' for reading
[http @ 0x7fb294019200] Opening 'http://hlsvod.shugiintv.go.jp/vod/_definst_/amlst:2016/2016-0229-1210-00/media_w2080225898_b564000_t64NTAwaw==_224.ts' for reading
[http @ 0x7fb29580a800] Opening 'http://hlsvod.shugiintv.go.jp/vod/_definst_/amlst:2016/2016-0229-1210-00/media_w2080225898_b564000_t64NTAwaw==_225.ts' for reading
[http @ 0x7fb294019200] Opening 'http://hlsvod.shugiintv.go.jp/vod/_definst_/amlst:2016/2016-0229-1210-00/media_w2080225898_b564000_t64NTAwaw==_226.ts' for reading
[http @ 0x7fb29580a800] Opening 'http://hlsvod.shugiintv.go.jp/vod/_definst_/amlst:2016/2016-0229-1210-00/media_w2080225898_b564000_t64NTAwaw==_227.ts' for reading
[http @ 0x7fb294019200] Opening 'http://hlsvod.shugiintv.go.jp/vod/_definst_/amlst:2016/2016-0229-1210-00/media_w2080225898_b564000_t64NTAwaw==_228.ts' for reading
[http @ 0x7fb29580a800] Opening 'http://hlsvod.shugiintv.go.jp/vod/_definst_/amlst:2016/2016-0229-1210-00/media_w2080225898_b564000_t64NTAwaw==_229.ts' for reading
[http @ 0x7fb294019200] Opening 'http://hlsvod.shugiintv.go.jp/vod/_definst_/amlst:2016/2016-0229-1210-00/media_w2080225898_b564000_t64NTAwaw==_230.ts' for reading
[http @ 0x7fb29580a800] Opening 'http://hlsvod.shugiintv.go.jp/vod/_definst_/amlst:2016/2016-0229-1210-00/media_w2080225898_b564000_t64NTAwaw==_231.ts' for reading
[http @ 0x7fb294019200] Opening 'http://hlsvod.shugiintv.go.jp/vod/_definst_/amlst:2016/2016-0229-1210-00/media_w2080225898_b564000_t64NTAwaw==_232.ts' for reading
[http @ 0x7fb29580a800] Opening 'http://hlsvod.shugiintv.go.jp/vod/_definst_/amlst:2016/2016-0229-1210-00/media_w2080225898_b564000_t64NTAwaw==_233.ts' for reading
[http @ 0x7fb294019200] Opening 'http://hlsvod.shugiintv.go.jp/vod/_definst_/amlst:2016/2016-0229-1210-00/media_w2080225898_b564000_t64NTAwaw==_234.ts' for reading
[http @ 0x7fb29580a800] Opening 'http://hlsvod.shugiintv.go.jp/vod/_definst_/amlst:2016/2016-0229-1210-00/media_w2080225898_b564000_t64NTAwaw==_235.ts' for reading
[http @ 0x7fb294019200] Opening 'http://hlsvod.shugiintv.go.jp/vod/_definst_/amlst:2016/2016-0229-1210-00/media_w2080225898_b564000_t64NTAwaw==_236.ts' for reading
[http @ 0x7fb29580a800] Opening 'http://hlsvod.shugiintv.go.jp/vod/_definst_/amlst:2016/2016-0229-1210-00/media_w2080225898_b564000_t64NTAwaw==_237.ts' for reading
[http @ 0x7fb294019200] Opening 'http://hlsvod.shugiintv.go.jp/vod/_definst_/amlst:2016/2016-0229-1210-00/media_w2080225898_b564000_t64NTAwaw==_238.ts' for reading
[http @ 0x7fb29580a800] Opening 'http://hlsvod.shugiintv.go.jp/vod/_definst_/amlst:2016/2016-0229-1210-00/media_w2080225898_b564000_t64NTAwaw==_239.ts' for reading
[http @ 0x7fb294019200] Opening 'http://hlsvod.shugiintv.go.jp/vod/_definst_/amlst:2016/2016-0229-1210-00/media_w2080225898_b564000_t64NTAwaw==_240.ts' for reading
[http @ 0x7fb29580a800] Opening 'http://hlsvod.shugiintv.go.jp/vod/_definst_/amlst:2016/2016-0229-1210-00/media_w2080225898_b564000_t64NTAwaw==_241.ts' for reading
[http @ 0x7fb294019200] Opening 'http://hlsvod.shugiintv.go.jp/vod/_definst_/amlst:2016/2016-0229-1210-00/media_w2080225898_b564000_t64NTAwaw==_242.ts' for reading
[http @ 0x7fb29580a800] Opening 'http://hlsvod.shugiintv.go.jp/vod/_definst_/amlst:2016/2016-0229-1210-00/media_w2080225898_b564000_t64NTAwaw==_243.ts' for reading
[http @ 0x7fb294019200] Opening 'http://hlsvod.shugiintv.go.jp/vod/_definst_/amlst:2016/2016-0229-1210-00/media_w2080225898_b564000_t64NTAwaw==_244.ts' for reading
[http @ 0x7fb29580a800] Opening 'http://hlsvod.shugiintv.go.jp/vod/_definst_/amlst:2016/2016-0229-1210-00/media_w2080225898_b564000_t64NTAwaw==_245.ts' for reading
[http @ 0x7fb294019200] Opening 'http://hlsvod.shugiintv.go.jp/vod/_definst_/amlst:2016/2016-0229-1210-00/media_w2080225898_b564000_t64NTAwaw==_246.ts' for reading
[http @ 0x7fb29580a800] Opening 'http://hlsvod.shugiintv.go.jp/vod/_definst_/amlst:2016/2016-0229-1210-00/media_w2080225898_b564000_t64NTAwaw==_247.ts' for reading
[http @ 0x7fb294019200] Opening 'http://hlsvod.shugiintv.go.jp/vod/_definst_/amlst:2016/2016-0229-1210-00/media_w2080225898_b564000_t64NTAwaw==_248.ts' for reading
[http @ 0x7fb29580a800] Opening 'http://hlsvod.shugiintv.go.jp/vod/_definst_/amlst:2016/2016-0229-1210-00/media_w2080225898_b564000_t64NTAwaw==_249.ts' for reading
[http @ 0x7fb294019200] Opening 'http://hlsvod.shugiintv.go.jp/vod/_definst_/amlst:2016/2016-0229-1210-00/media_w2080225898_b564000_t64NTAwaw==_250.ts' for reading
[http @ 0x7fb29580a800] Opening 'http://hlsvod.shugiintv.go.jp/vod/_definst_/amlst:2016/2016-0229-1210-00/media_w2080225898_b564000_t64NTAwaw==_251.ts' for reading
[http @ 0x7fb294019200] Opening 'http://hlsvod.shugiintv.go.jp/vod/_definst_/amlst:2016/2016-0229-1210-00/media_w2080225898_b564000_t64NTAwaw==_252.ts' for reading
[http @ 0x7fb29580a800] Opening 'http://hlsvod.shugiintv.go.jp/vod/_definst_/amlst:2016/2016-0229-1210-00/media_w2080225898_b564000_t64NTAwaw==_253.ts' for reading
[http @ 0x7fb294019200] Opening 'http://hlsvod.shugiintv.go.jp/vod/_definst_/amlst:2016/2016-0229-1210-00/media_w2080225898_b564000_t64NTAwaw==_254.ts' for reading
[http @ 0x7fb29580a800] Opening 'http://hlsvod.shugiintv.go.jp/vod/_definst_/amlst:2016/2016-0229-1210-00/media_w2080225898_b564000_t64NTAwaw==_255.ts' for reading
[http @ 0x7fb294019200] Opening 'http://hlsvod.shugiintv.go.jp/vod/_definst_/amlst:2016/2016-0229-1210-00/media_w2080225898_b564000_t64NTAwaw==_256.ts' for reading
[http @ 0x7fb29580a800] Opening 'http://hlsvod.shugiintv.go.jp/vod/_definst_/amlst:2016/2016-0229-1210-00/media_w2080225898_b564000_t64NTAwaw==_257.ts' for reading
[http @ 0x7fb294019200] Opening 'http://hlsvod.shugiintv.go.jp/vod/_definst_/amlst:2016/2016-0229-1210-00/media_w2080225898_b564000_t64NTAwaw==_258.ts' for reading
[http @ 0x7fb29580a800] Opening 'http://hlsvod.shugiintv.go.jp/vod/_definst_/amlst:2016/2016-0229-1210-00/media_w2080225898_b564000_t64NTAwaw==_259.ts' for reading
[http @ 0x7fb294019200] Opening 'http://hlsvod.shugiintv.go.jp/vod/_definst_/amlst:2016/2016-0229-1210-00/media_w2080225898_b564000_t64NTAwaw==_260.ts' for reading
[http @ 0x7fb29580a800] Opening 'http://hlsvod.shugiintv.go.jp/vod/_definst_/amlst:2016/2016-0229-1210-00/media_w2080225898_b564000_t64NTAwaw==_261.ts' for reading
[http @ 0x7fb294019200] Opening 'http://hlsvod.shugiintv.go.jp/vod/_definst_/amlst:2016/2016-0229-1210-00/media_w2080225898_b564000_t64NTAwaw==_262.ts' for reading
[http @ 0x7fb29580a800] Opening 'http://hlsvod.shugiintv.go.jp/vod/_definst_/amlst:2016/2016-0229-1210-00/media_w2080225898_b564000_t64NTAwaw==_263.ts' for reading
[http @ 0x7fb294019200] Opening 'http://hlsvod.shugiintv.go.jp/vod/_definst_/amlst:2016/2016-0229-1210-00/media_w2080225898_b564000_t64NTAwaw==_264.ts' for reading
[http @ 0x7fb29580a800] Opening 'http://hlsvod.shugiintv.go.jp/vod/_definst_/amlst:2016/2016-0229-1210-00/media_w2080225898_b564000_t64NTAwaw==_265.ts' for reading
[http @ 0x7fb294019200] Opening 'http://hlsvod.shugiintv.go.jp/vod/_definst_/amlst:2016/2016-0229-1210-00/media_w2080225898_b564000_t64NTAwaw==_266.ts' for reading
[http @ 0x7fb29580a800] Opening 'http://hlsvod.shugiintv.go.jp/vod/_definst_/amlst:2016/2016-0229-1210-00/media_w2080225898_b564000_t64NTAwaw==_267.ts' for reading
[http @ 0x7fb294019200] Opening 'http://hlsvod.shugiintv.go.jp/vod/_definst_/amlst:2016/2016-0229-1210-00/media_w2080225898_b564000_t64NTAwaw==_268.ts' for reading
[http @ 0x7fb29580a800] Opening 'http://hlsvod.shugiintv.go.jp/vod/_definst_/amlst:2016/2016-0229-1210-00/media_w2080225898_b564000_t64NTAwaw==_269.ts' for reading
[http @ 0x7fb294019200] Opening 'http://hlsvod.shugiintv.go.jp/vod/_definst_/amlst:2016/2016-0229-1210-00/media_w2080225898_b564000_t64NTAwaw==_270.ts' for reading
[http @ 0x7fb29580a800] Opening 'http://hlsvod.shugiintv.go.jp/vod/_definst_/amlst:2016/2016-0229-1210-00/media_w2080225898_b564000_t64NTAwaw==_271.ts' for reading
[http @ 0x7fb294019200] Opening 'http://hlsvod.shugiintv.go.jp/vod/_definst_/amlst:2016/2016-0229-1210-00/media_w2080225898_b564000_t64NTAwaw==_272.ts' for reading
[http @ 0x7fb29580a800] Opening 'http://hlsvod.shugiintv.go.jp/vod/_definst_/amlst:2016/2016-0229-1210-00/media_w2080225898_b564000_t64NTAwaw==_273.ts' for reading
[http @ 0x7fb294019200] Opening 'http://hlsvod.shugiintv.go.jp/vod/_definst_/amlst:2016/2016-0229-1210-00/media_w2080225898_b564000_t64NTAwaw==_274.ts' for reading
[http @ 0x7fb29580a800] Opening 'http://hlsvod.shugiintv.go.jp/vod/_definst_/amlst:2016/2016-0229-1210-00/media_w2080225898_b564000_t64NTAwaw==_275.ts' for reading
[http @ 0x7fb294019200] Opening 'http://hlsvod.shugiintv.go.jp/vod/_definst_/amlst:2016/2016-0229-1210-00/media_w2080225898_b564000_t64NTAwaw==_276.ts' for reading
[http @ 0x7fb29580a800] Opening 'http://hlsvod.shugiintv.go.jp/vod/_definst_/amlst:2016/2016-0229-1210-00/media_w2080225898_b564000_t64NTAwaw==_277.ts' for reading
[http @ 0x7fb294019200] Opening 'http://hlsvod.shugiintv.go.jp/vod/_definst_/amlst:2016/2016-0229-1210-00/media_w2080225898_b564000_t64NTAwaw==_278.ts' for reading
[http @ 0x7fb29580a800] Opening 'http://hlsvod.shugiintv.go.jp/vod/_definst_/amlst:2016/2016-0229-1210-00/media_w2080225898_b564000_t64NTAwaw==_279.ts' for reading
[http @ 0x7fb294019200] Opening 'http://hlsvod.shugiintv.go.jp/vod/_definst_/amlst:2016/2016-0229-1210-00/media_w2080225898_b564000_t64NTAwaw==_280.ts' for reading
[http @ 0x7fb29580a800] Opening 'http://hlsvod.shugiintv.go.jp/vod/_definst_/amlst:2016/2016-0229-1210-00/media_w2080225898_b564000_t64NTAwaw==_281.ts' for reading
[http @ 0x7fb294019200] Opening 'http://hlsvod.shugiintv.go.jp/vod/_definst_/amlst:2016/2016-0229-1210-00/media_w2080225898_b564000_t64NTAwaw==_282.ts' for reading
[http @ 0x7fb29580a800] Opening 'http://hlsvod.shugiintv.go.jp/vod/_definst_/amlst:2016/2016-0229-1210-00/media_w2080225898_b564000_t64NTAwaw==_283.ts' for reading
[http @ 0x7fb294019200] Opening 'http://hlsvod.shugiintv.go.jp/vod/_definst_/amlst:2016/2016-0229-1210-00/media_w2080225898_b564000_t64NTAwaw==_284.ts' for reading
[http @ 0x7fb29580a800] Opening 'http://hlsvod.shugiintv.go.jp/vod/_definst_/amlst:2016/2016-0229-1210-00/media_w2080225898_b564000_t64NTAwaw==_285.ts' for reading
[http @ 0x7fb294019200] Opening 'http://hlsvod.shugiintv.go.jp/vod/_definst_/amlst:2016/2016-0229-1210-00/media_w2080225898_b564000_t64NTAwaw==_286.ts' for reading
[http @ 0x7fb29580a800] Opening 'http://hlsvod.shugiintv.go.jp/vod/_definst_/amlst:2016/2016-0229-1210-00/media_w2080225898_b564000_t64NTAwaw==_287.ts' for reading
[http @ 0x7fb294019200] Opening 'http://hlsvod.shugiintv.go.jp/vod/_definst_/amlst:2016/2016-0229-1210-00/media_w2080225898_b564000_t64NTAwaw==_288.ts' for reading
[http @ 0x7fb29580a800] Opening 'http://hlsvod.shugiintv.go.jp/vod/_definst_/amlst:2016/2016-0229-1210-00/media_w2080225898_b564000_t64NTAwaw==_289.ts' for reading
[http @ 0x7fb294019200] Opening 'http://hlsvod.shugiintv.go.jp/vod/_definst_/amlst:2016/2016-0229-1210-00/media_w2080225898_b564000_t64NTAwaw==_290.ts' for reading
[http @ 0x7fb29580a800] Opening 'http://hlsvod.shugiintv.go.jp/vod/_definst_/amlst:2016/2016-0229-1210-00/media_w2080225898_b564000_t64NTAwaw==_291.ts' for reading
[http @ 0x7fb294019200] Opening 'http://hlsvod.shugiintv.go.jp/vod/_definst_/amlst:2016/2016-0229-1210-00/media_w2080225898_b564000_t64NTAwaw==_292.ts' for reading
[http @ 0x7fb29580a800] Opening 'http://hlsvod.shugiintv.go.jp/vod/_definst_/amlst:2016/2016-0229-1210-00/media_w2080225898_b564000_t64NTAwaw==_293.ts' for reading
[http @ 0x7fb294019200] Opening 'http://hlsvod.shugiintv.go.jp/vod/_definst_/amlst:2016/2016-0229-1210-00/media_w2080225898_b564000_t64NTAwaw==_294.ts' for reading
[http @ 0x7fb29580a800] Opening 'http://hlsvod.shugiintv.go.jp/vod/_definst_/amlst:2016/2016-0229-1210-00/media_w2080225898_b564000_t64NTAwaw==_295.ts' for reading
[http @ 0x7fb294019200] Opening 'http://hlsvod.shugiintv.go.jp/vod/_definst_/amlst:2016/2016-0229-1210-00/media_w2080225898_b564000_t64NTAwaw==_296.ts' for reading
[http @ 0x7fb29580a800] Opening 'http://hlsvod.shugiintv.go.jp/vod/_definst_/amlst:2016/2016-0229-1210-00/media_w2080225898_b564000_t64NTAwaw==_297.ts' for reading
[http @ 0x7fb294019200] Opening 'http://hlsvod.shugiintv.go.jp/vod/_definst_/amlst:2016/2016-0229-1210-00/media_w2080225898_b564000_t64NTAwaw==_298.ts' for reading
[http @ 0x7fb29580a800] Opening 'http://hlsvod.shugiintv.go.jp/vod/_definst_/amlst:2016/2016-0229-1210-00/media_w2080225898_b564000_t64NTAwaw==_299.ts' for reading
[http @ 0x7fb294019200] Opening 'http://hlsvod.shugiintv.go.jp/vod/_definst_/amlst:2016/2016-0229-1210-00/media_w2080225898_b564000_t64NTAwaw==_300.ts' for reading
[http @ 0x7fb29580a800] Opening 'http://hlsvod.shugiintv.go.jp/vod/_definst_/amlst:2016/2016-0229-1210-00/media_w2080225898_b564000_t64NTAwaw==_301.ts' for reading
[http @ 0x7fb294019200] Opening 'http://hlsvod.shugiintv.go.jp/vod/_definst_/amlst:2016/2016-0229-1210-00/media_w2080225898_b564000_t64NTAwaw==_302.ts' for reading
[http @ 0x7fb29580a800] Opening 'http://hlsvod.shugiintv.go.jp/vod/_definst_/amlst:2016/2016-0229-1210-00/media_w2080225898_b564000_t64NTAwaw==_303.ts' for reading
[http @ 0x7fb294019200] Opening 'http://hlsvod.shugiintv.go.jp/vod/_definst_/amlst:2016/2016-0229-1210-00/media_w2080225898_b564000_t64NTAwaw==_304.ts' for reading
[http @ 0x7fb29580a800] Opening 'http://hlsvod.shugiintv.go.jp/vod/_definst_/amlst:2016/2016-0229-1210-00/media_w2080225898_b564000_t64NTAwaw==_305.ts' for reading
[http @ 0x7fb294019200] Opening 'http://hlsvod.shugiintv.go.jp/vod/_definst_/amlst:2016/2016-0229-1210-00/media_w2080225898_b564000_t64NTAwaw==_306.ts' for reading
[http @ 0x7fb29580a800] Opening 'http://hlsvod.shugiintv.go.jp/vod/_definst_/amlst:2016/2016-0229-1210-00/media_w2080225898_b564000_t64NTAwaw==_307.ts' for reading
[http @ 0x7fb294019200] Opening 'http://hlsvod.shugiintv.go.jp/vod/_definst_/amlst:2016/2016-0229-1210-00/media_w2080225898_b564000_t64NTAwaw==_308.ts' for reading
[http @ 0x7fb29580a800] Opening 'http://hlsvod.shugiintv.go.jp/vod/_definst_/amlst:2016/2016-0229-1210-00/media_w2080225898_b564000_t64NTAwaw==_309.ts' for reading
[http @ 0x7fb294019200] Opening 'http://hlsvod.shugiintv.go.jp/vod/_definst_/amlst:2016/2016-0229-1210-00/media_w2080225898_b564000_t64NTAwaw==_310.ts' for reading
[http @ 0x7fb29580a800] Opening 'http://hlsvod.shugiintv.go.jp/vod/_definst_/amlst:2016/2016-0229-1210-00/media_w2080225898_b564000_t64NTAwaw==_311.ts' for reading
[http @ 0x7fb294019200] Opening 'http://hlsvod.shugiintv.go.jp/vod/_definst_/amlst:2016/2016-0229-1210-00/media_w2080225898_b564000_t64NTAwaw==_312.ts' for reading
[http @ 0x7fb29580a800] Opening 'http://hlsvod.shugiintv.go.jp/vod/_definst_/amlst:2016/2016-0229-1210-00/media_w2080225898_b564000_t64NTAwaw==_313.ts' for reading
[http @ 0x7fb294019200] Opening 'http://hlsvod.shugiintv.go.jp/vod/_definst_/amlst:2016/2016-0229-1210-00/media_w2080225898_b564000_t64NTAwaw==_314.ts' for reading
[http @ 0x7fb29580a800] Opening 'http://hlsvod.shugiintv.go.jp/vod/_definst_/amlst:2016/2016-0229-1210-00/media_w2080225898_b564000_t64NTAwaw==_315.ts' for reading
[http @ 0x7fb294019200] Opening 'http://hlsvod.shugiintv.go.jp/vod/_definst_/amlst:2016/2016-0229-1210-00/media_w2080225898_b564000_t64NTAwaw==_316.ts' for reading
[http @ 0x7fb29580a800] Opening 'http://hlsvod.shugiintv.go.jp/vod/_definst_/amlst:2016/2016-0229-1210-00/media_w2080225898_b564000_t64NTAwaw==_317.ts' for reading
[http @ 0x7fb294019200] Opening 'http://hlsvod.shugiintv.go.jp/vod/_definst_/amlst:2016/2016-0229-1210-00/media_w2080225898_b564000_t64NTAwaw==_318.ts' for reading
[http @ 0x7fb29580a800] Opening 'http://hlsvod.shugiintv.go.jp/vod/_definst_/amlst:2016/2016-0229-1210-00/media_w2080225898_b564000_t64NTAwaw==_319.ts' for reading
[http @ 0x7fb294019200] Opening 'http://hlsvod.shugiintv.go.jp/vod/_definst_/amlst:2016/2016-0229-1210-00/media_w2080225898_b564000_t64NTAwaw==_320.ts' for reading
[http @ 0x7fb29580a800] Opening 'http://hlsvod.shugiintv.go.jp/vod/_definst_/amlst:2016/2016-0229-1210-00/media_w2080225898_b564000_t64NTAwaw==_321.ts' for reading
[http @ 0x7fb294019200] Opening 'http://hlsvod.shugiintv.go.jp/vod/_definst_/amlst:2016/2016-0229-1210-00/media_w2080225898_b564000_t64NTAwaw==_322.ts' for reading
[http @ 0x7fb29580a800] Opening 'http://hlsvod.shugiintv.go.jp/vod/_definst_/amlst:2016/2016-0229-1210-00/media_w2080225898_b564000_t64NTAwaw==_323.ts' for reading
[http @ 0x7fb294019200] Opening 'http://hlsvod.shugiintv.go.jp/vod/_definst_/amlst:2016/2016-0229-1210-00/media_w2080225898_b564000_t64NTAwaw==_324.ts' for reading
[http @ 0x7fb29580a800] Opening 'http://hlsvod.shugiintv.go.jp/vod/_definst_/amlst:2016/2016-0229-1210-00/media_w2080225898_b564000_t64NTAwaw==_325.ts' for reading
[http @ 0x7fb294019200] Opening 'http://hlsvod.shugiintv.go.jp/vod/_definst_/amlst:2016/2016-0229-1210-00/media_w2080225898_b564000_t64NTAwaw==_326.ts' for reading
[http @ 0x7fb29580a800] Opening 'http://hlsvod.shugiintv.go.jp/vod/_definst_/amlst:2016/2016-0229-1210-00/media_w2080225898_b564000_t64NTAwaw==_327.ts' for reading
[http @ 0x7fb294019200] Opening 'http://hlsvod.shugiintv.go.jp/vod/_definst_/amlst:2016/2016-0229-1210-00/media_w2080225898_b564000_t64NTAwaw==_328.ts' for reading
[http @ 0x7fb29580a800] Opening 'http://hlsvod.shugiintv.go.jp/vod/_definst_/amlst:2016/2016-0229-1210-00/media_w2080225898_b564000_t64NTAwaw==_329.ts' for reading
[http @ 0x7fb294019200] Opening 'http://hlsvod.shugiintv.go.jp/vod/_definst_/amlst:2016/2016-0229-1210-00/media_w2080225898_b564000_t64NTAwaw==_330.ts' for reading
[http @ 0x7fb29580a800] Opening 'http://hlsvod.shugiintv.go.jp/vod/_definst_/amlst:2016/2016-0229-1210-00/media_w2080225898_b564000_t64NTAwaw==_331.ts' for reading
[http @ 0x7fb294019200] Opening 'http://hlsvod.shugiintv.go.jp/vod/_definst_/amlst:2016/2016-0229-1210-00/media_w2080225898_b564000_t64NTAwaw==_332.ts' for reading
[http @ 0x7fb29580a800] Opening 'http://hlsvod.shugiintv.go.jp/vod/_definst_/amlst:2016/2016-0229-1210-00/media_w2080225898_b564000_t64NTAwaw==_333.ts' for reading
[http @ 0x7fb294019200] Opening 'http://hlsvod.shugiintv.go.jp/vod/_definst_/amlst:2016/2016-0229-1210-00/media_w2080225898_b564000_t64NTAwaw==_334.ts' for reading
[http @ 0x7fb29580a800] Opening 'http://hlsvod.shugiintv.go.jp/vod/_definst_/amlst:2016/2016-0229-1210-00/media_w2080225898_b564000_t64NTAwaw==_335.ts' for reading
[http @ 0x7fb294019200] Opening 'http://hlsvod.shugiintv.go.jp/vod/_definst_/amlst:2016/2016-0229-1210-00/media_w2080225898_b564000_t64NTAwaw==_336.ts' for reading
[http @ 0x7fb29580a800] Opening 'http://hlsvod.shugiintv.go.jp/vod/_definst_/amlst:2016/2016-0229-1210-00/media_w2080225898_b564000_t64NTAwaw==_337.ts' for reading
[http @ 0x7fb294019200] Opening 'http://hlsvod.shugiintv.go.jp/vod/_definst_/amlst:2016/2016-0229-1210-00/media_w2080225898_b564000_t64NTAwaw==_338.ts' for reading
[http @ 0x7fb29580a800] Opening 'http://hlsvod.shugiintv.go.jp/vod/_definst_/amlst:2016/2016-0229-1210-00/media_w2080225898_b564000_t64NTAwaw==_339.ts' for reading
[http @ 0x7fb294019200] Opening 'http://hlsvod.shugiintv.go.jp/vod/_definst_/amlst:2016/2016-0229-1210-00/media_w2080225898_b564000_t64NTAwaw==_340.ts' for reading
[http @ 0x7fb29580a800] Opening 'http://hlsvod.shugiintv.go.jp/vod/_definst_/amlst:2016/2016-0229-1210-00/media_w2080225898_b564000_t64NTAwaw==_341.ts' for reading
[http @ 0x7fb294019200] Opening 'http://hlsvod.shugiintv.go.jp/vod/_definst_/amlst:2016/2016-0229-1210-00/media_w2080225898_b564000_t64NTAwaw==_342.ts' for reading
[http @ 0x7fb29580a800] Opening 'http://hlsvod.shugiintv.go.jp/vod/_definst_/amlst:2016/2016-0229-1210-00/media_w2080225898_b564000_t64NTAwaw==_343.ts' for reading
[http @ 0x7fb294019200] Opening 'http://hlsvod.shugiintv.go.jp/vod/_definst_/amlst:2016/2016-0229-1210-00/media_w2080225898_b564000_t64NTAwaw==_344.ts' for reading
[http @ 0x7fb29580a800] Opening 'http://hlsvod.shugiintv.go.jp/vod/_definst_/amlst:2016/2016-0229-1210-00/media_w2080225898_b564000_t64NTAwaw==_345.ts' for reading
frame=103537 fps=2751 q=-1.0 Lsize=  229450kB time=00:57:31.29 bitrate= 544.6kbits/s speed=91.7x  
video:198930kB audio:26881kB subtitle:0kB other streams:0kB global headers:0kB muxing overhead: 1.611445%


Tuesday, November 5, 2019

@THE PAGE(ザ・ページ):籠池泰典氏が語る“森友問題の裏側” 外国特派員協会で会見(2019年10月31日)



  • 求刑7年
  • The prosecution's demand for punishment (a penalty) is 7 years in prison.

Friday, November 1, 2019

@チェンジジャパン日本を変えようChangeJapan:隠された国家予算‐特別会計の闇-



  • 及川幸久
  • 与国秀行
  • 幸福実現党
  • 会計検査院
  • 官僚たちの財布

@オリーブの木ちゃんねる代表 黒川あつひこ:特別会計を追及した石井紘基。年金、暗殺、国債、天下り。

Kōki Ishii (石井紘基)



  • Urban Renaissance Agency (都市再生機構)
  • Japan Highway Public Corporation (日本道路公団)
  • 民営化・PFI
  • 竹中平蔵
  • 浜松市の下水道をフランスのヴェオリアに売却
  • 関空をオリックスとヴァンシに売却
  • 外国為替特別会計
  • 国債特別会計
  • 年金特別会計
  • 健康保険特別会計
  • 年金特別会計でグリーンピア(建物)1953億円を建てた
  • 東京地検特捜部
  • 国民健康保険でやたらと高い抗がん剤(外資)
  • 石井ターニャ
  • ゆうちょ銀行の資金約100兆円が米国債やアメリカの金融商品になる

Takashi Tachibana (立花孝志):法律より憲法の方が強い、そして憲法は国民を守ってくれる。どうして足立区議会議員選挙に墨田区の候補者を擁立するのか詳しく解説します。

Thursday, October 10, 2019

Wednesday, September 18, 2019

Tuesday, September 17, 2019

@堀江貴文:立花孝志と堀江貴文が初対談!立花党首の過去に迫る…!

立花党首の過去に迫る…!【Part1】


  • 体と声がでかい
  • 大学行ってない
  • 裏金づくり
  • 二重帳簿
  • フジテレビ
  • マードック
  • アラビア太郎の息子
  • 満州太郎
  • 山下太郎 (アラビア石油)
  • 株式会社泰正社長の正木烝司
  • 日本一のパチプロ
  • 梁山泊 (パチンコ)
  • 著しく合理性に欠けなければ司法は立法の判断を覆さない
  • 2013年にインターネット選挙運動が始まった
  • 被疑者になるの5回目
  • 一度も起訴されてない
  • 刑事訴訟法の改正みんなビビってる
  • 政治資金規正法
  • ガールズバーは黒
  • Hiranuma Kiichirō (平沼騏一郎)
  • Peace Preservation Law (治安維持法)

Monday, September 2, 2019

Simone Weil: An Encounter with Simone Weil (2010)

Julia Haslett (Filmmaker)
Simone Weil

  • "Attention is the rarest and purest form of generosity."
  • Anna Brown (Activist and political science professor)
  • "It's not religion, but revolution that is the opium of the people."
  • Pacifism (平和主義)

Sunday, September 1, 2019

Blaise Pascal: @The School of Life: PHILOSOPHY

Blaise Pascal



  • "Man's greatness comes from knowing he is wretched."
  • wretched (哀れ)

Ansu Fati: vs Osasuna (8/31/2019)

Ansu Fati

Sunday, August 25, 2019

Thursday, August 22, 2019

Erik Verlinde: @Studium Generale Delft: A New View on Gravity and the Cosmos



  • Apsis
  • Aphelion
  • Perihelion 
  • 近点・遠点
  • Gravitational lensing
  • Einstein Ring
  • Detection of Gravitational Waves (from Merging Black Holes)
  • Rotation velocity of a galaxy
  • Bekenstein & Hawking's Black Hole Thought Experiments
  • Black holes emit radiation

$$S = {Area \over 4Gℏ}c^3$$
The amount of information is determined by the area of the black hole horizon.

  • EPR pair
  • It from Qubit

Margot Brouwer: @Information Universe Conference informationuniverse: Testing Verlinde's Emergent Gravity using Gravitational Lensing.

Margot Brouwer

Thursday, August 15, 2019

macOS Mojave: Bash: Copying SFML (Simple and Fast Multimedia Library) to Xcode

Command:

$ pwd

Result:

/Users/USERNAME/Downloads/SFML-2.5.1-macos-clang

Command:

$ sudo cp -r Frameworks/* /Library/Frameworks/
$ sudo cp -r lib/* /usr/local/lib
$ sudo cp -r extlibs/* /Library/Frameworks/
$ sudo mkdir /Library/Developer/Xcode
$ sudo mkdir /Library/Developer/Xcode/Templates
$ sudo cp -r templates/* /Library/Developer/Xcode/Templates/

@CodeParade: Particle Life - A Game of Life Made of Particles

@CodeParade: Non-Euclidean Worlds Engine